logo

Napoleon (2017) Telugu 720p WEBHD x264 AAC - 700MB - MovCr

  • Category Movies
  • Type HD
  • Language Telugu
  • Total size 636.5 MB
  • Uploaded By ictv
  • Downloads 581
  • Last checked 3 days ago
  • Date uploaded 1 week ago
  • Seeders 22
  • Leechers 5

Triptych From Napoleon

A digital flicker film following a structure designed inherently within the closing acts of Abel Gance's "Napoleon," Triptych is in many ways a set of questions defined by the nature of nationality and the appropriation of identity - flicker films are mercurially bound to celluloid, and to appropriate this in a digital manner is a crime of its own.

Infohash : 1A4EDD9BEB9F27423113D5B82D798369BC037CF4

Napoleon (2017) Telugu 720p WEBHD x264 AAC - 700MB - MovCr

Download Napoleon (2017) Telugu 720p WEBHD x264 AAC - 700MB - MovCr Torrent
General
Complete name : www.movcr.com - Napoleon (2017) Telugu 720p WEBHD x264 AAC - 700MB - MovCr.mkv
Format : Matroska
Format version : Version 4 / Version 2
File size : 636 MiB
Duration : 1 h 55 min
Overall bit rate : 771 kb/s
Movie name : www.movcr.com
Encoded date : UTC 2018-01-14 17:34:21
Writing application : mkvmerge v17.0.0 ('Be Ur Friend') 64-bit
Writing library : libebml v1.3.5 + libmatroska v1.4.8

Video
ID : 1
Format : AVC
Format/Info : Advanced Video Codec
Format profile : [email protected]
Format settings : CABAC / 3 Ref Frames
Format settings, CABAC : Yes
Format settings, RefFrames : 3 frames
Codec ID : V_MPEG4/ISO/AVC
Duration : 1 h 55 min
Bit rate : 643 kb/s
Width : 1 280 pixels
Height : 720 pixels
Display aspect ratio : 16:9
Frame rate mode : Constant
Frame rate : 24.000 FPS
Color space : YUV
Chroma subsampling : 4:2:0
Bit depth : 8 bits
Scan type : Progressive
Bits/(Pixel*Frame) : 0.029
Stream size : 531 MiB (83%)
Title : www.movcr.com
Default : Yes
Forced : No
Color range : Limited
Color primaries : BT.709
Transfer characteristics : BT.709
Matrix coefficients : BT.709

Audio
ID : 2
Format : AAC
Format/Info : Advanced Audio Codec
Format profile : LC
Codec ID : A_AAC-2
Duration : 1 h 55 min
Bit rate : 126 kb/s
Channel(s) : 2 channels
Channel positions : Front: L R
Sampling rate : 44.1 kHz
Frame rate : 43.066 FPS (1024 SPF)
Compression mode : Lossy
Stream size : 104 MiB (16%)
Title : www.movcr.com
Default : Yes
Forced : No


Download Napoleon (2017) Telugu 720p WEBHD x264 AAC - 700MB - MovCr Torrent
Download Napoleon (2017) Telugu 720p WEBHD x264 AAC - 700MB - MovCr Torrent
Download Napoleon (2017) Telugu 720p WEBHD x264 AAC - 700MB - MovCr Torrent
Download Napoleon (2017) Telugu 720p WEBHD x264 AAC - 700MB - MovCr Torrent
Download Napoleon (2017) Telugu 720p WEBHD x264 AAC - 700MB - MovCr Torrent
Download Napoleon (2017) Telugu 720p WEBHD x264 AAC - 700MB - MovCr Torrent
Download Napoleon (2017) Telugu 720p WEBHD x264 AAC - 700MB - MovCr Torrent
Download Napoleon (2017) Telugu 720p WEBHD x264 AAC - 700MB - MovCr Torrent

Files:

  • www.movcr.com - Napoleon (2017) Telugu 720p WEBHD x264 AAC - 700MB - MovCr.mkv (636.5 MB)

There are currently no comments. Feel free to leave one :)

Code:

  • udp://tracker.openbittorrent.com:80/announce
  • udp://tracker.coppersurfer.tk:6969/announce
  • udp://zer0day.ch:1337/announce
  • udp://tracker.leechers-paradise.org:6969/announce
  • udp://9.rarbg.com:2710/announce
  • udp://p4p.arenabg.com:1337/announce
  • udp://tracker.sktorrent.net:6969/announce
  • http://p4p.arenabg.com:1337/announce